Astro Boy 2009 (1080p Bluray x265 HEVC 10bit AAC 5.1 Tigole) [UTR...

  • Category Movies
  • Type HEVC/x265
  • Language English
  • Total size 2.8 GB
  • Uploaded By UTRplus
  • Downloads 1705
  • Last checked 1 week ago
  • Date uploaded 1 week ago
  • Seeders 63
  • Leechers 20

Astro Boy

ActionAnimationScience FictionFamily

Set in futuristic Metro City, Astro Boy is about a young robot with incredible powers created by a brilliant scientist in the image of the son he has lost. Unable to fulfill the grieving man's expectations, our hero embarks on a journey in search of acceptance, experiencing betrayal and a netherworld of robot gladiators, before he returns to save Metro City and reconcile with the father who had rejected him.

Infohash : 154018FA41D93509EAEED5463269CF45A3B4FAFE



Astro Boy 2009 in 1080p, encoded with x265 in HEVC and AAC 5.1 English, with subtitle!
Encoded using the time consuming 2 pass, 10 bit color at 3077 kbps, from a Blu-ray source, for the highest quality possible.



Media Information

Code:

General
Format : Matroska
Format version : Version 4 / Version 2
File size : 2.33 GiB
Duration : 1 h 33 min
Overall bit rate : 3 555 kb/s
Movie name : Astro Boy
Encoded date : UTC 2017-09-16 17:47:14
Writing application : mkvmerge v14.0.0 ('Flow') 64bit
Writing library : libebml v1.3.4 + libmatroska v1.4.5

Video
ID : 1
Format : HEVC
Format/Info : High Efficiency Video Coding
Format profile : Main [email protected]@Main
Codec ID : V_MPEGH/ISO/HEVC
Duration : 1 h 33 min
Bit rate : 3 077 kb/s
Width : 1 920 pixels
Height : 816 pixels
Display aspect ratio : 2.35:1
Frame rate mode : Constant
Frame rate : 23.976 (24000/1001) FPS
Color space : YUV
Chroma subsampling : 4:2:0
Bit depth : 10 bits
Bits/(Pixel*Frame) : 0.082
Stream size : 2.02 GiB (87%)
Writing library : x265 2.5+14-2718cb5dd67f:[Windows][GCC 7.1.0][64 bit] 10bit
Encoding settings : cpuid=1173503 / frame-threads=3 / numa-pools=8 / wpp / no-pmode / no-pme / no-psnr / no-ssim / log-level=2 / input-csp=1 / input-res=1920x816 / interlace=0 / total-frames=134952 / level-idc=0 / high-tier=1 / uhd-bd=0 / ref=4 / no-allow-non-conformance / no-repeat-headers / annexb / no-aud / no-hrd / info / hash=0 / no-temporal-layers / open-gop / min-keyint=23 / keyint=250 / bframes=4 / b-adapt=2 / b-pyramid / bframe-bias=0 / rc-lookahead=25 / lookahead-slices=4 / scenecut=40 / no-intra-refresh / ctu=64 / min-cu-size=8 / rect / no-amp / max-tu-size=32 / tu-inter-depth=1 / tu-intra-depth=1 / limit-tu=0 / rdoq-level=2 / dynamic-rd=0.00 / no-ssim-rd / signhide / no-tskip / nr-intra=0 / nr-inter=0 / no-constrained-intra / strong-intra-smoothing / max-merge=3 / limit-refs=3 / limit-modes / me=3 / subme=3 / merange=57 / temporal-mvp / weightp / no-weightb / no-analyze-src-pics / deblock=0:0 / sao / no-sao-non-deblock / rd=4 / no-early-skip / rskip / no-fast-intra / no-tskip-fast / no-cu-lossless / no-b-intra / no-splitrd-skip / rdpenalty=0 / psy-rd=2.00 / psy-rdoq=1.00 / no-rd-refine / analysis-reuse-mode=0 / no-lossless / cbqpoffs=0 / crqpoffs=0 / rc=abr / bitrate=3077 / qcomp=0.60 / qpstep=4 / stats-write=0 / stats-read=2 / cplxblur=20.0 / qblur=0.5 / ipratio=1.40 / pbratio=1.30 / aq-mode=2 / aq-strength=1.00 / cutree / zone-count=0 / no-strict-cbr / qg-size=32 / no-rc-grain / qpmax=69 / qpmin=0 / no-const-vbv / sar=0 / overscan=0 / videoformat=5 / range=0 / colorprim=2 / transfer=2 / colormatrix=2 / chromaloc=0 / display-window=0 / max-cll=0,0 / min-luma=0 / max-luma=1023 / log2-max-poc-lsb=8 / vui-timing-info / vui-hrd-info / slices=1 / opt-qp-pps / opt-ref-list-length-pps / no-multi-pass-opt-rps / scenecut-bias=0.05 / no-opt-cu-delta-qp / no-aq-motion / no-hdr / no-hdr-opt / no-dhdr10-opt / analysis-reuse-level=5 / scale-factor=0 / refine-intra=0 / refine-inter=0 / refine-mv=0 / no-limit-sao / ctu-info=0
Default : Yes
Forced : No

Audio
ID : 2
Format : AAC
Format/Info : Advanced Audio Codec
Format profile : LC
Codec ID : A_AAC
Duration : 1 h 33 min
Bit rate : 469 kb/s
Channel(s) : 6 channels
Channel positions : Front: L C R, Side: L R, LFE
Sampling rate : 48.0 kHz
Frame rate : 46.875 FPS (1024 spf)
Compression mode : Lossy
Delay relative to video : 20 ms
Stream size : 314 MiB (13%)
Language : English
Default : Yes
Forced : No

Text
ID : 3
Format : VobSub
Muxing mode : zlib
Codec ID : S_VOBSUB
Codec ID/Info : Picture based subtitle format used on DVDs
Duration : 1 h 24 min
Bit rate : 11.9 kb/s
Count of elements : 1312
Stream size : 7.21 MiB (0%)
Language : English
Default : No
Forced : No

Menu
00:00:00.000 : en:Chapter 01
00:05:26.492 : en:Chapter 02
00:12:40.509 : en:Chapter 03
00:17:41.602 : en:Chapter 04
00:22:41.151 : en:Chapter 05
00:26:56.489 : en:Chapter 06
00:29:30.393 : en:Chapter 07
00:33:34.762 : en:Chapter 08
00:37:24.784 : en:Chapter 09
00:42:14.240 : en:Chapter 10
00:47:46.321 : en:Chapter 11
00:52:19.052 : en:Chapter 12
00:57:24.357 : en:Chapter 13
01:00:14.569 : en:Chapter 14
01:06:49.005 : en:Chapter 15
01:13:00.959 : en:Chapter 16
01:18:20.028 : en:Chapter 17
01:22:15.347 : en:Chapter 18


Source Information

Code:

Complete name : Astro_Boy_t02.mkv
File size : 24.3 GiB
Duration : 1 h 33 min
Overall bit rate mode : Variable
Overall bit rate : 37.1 Mb/s


Files:

Astro Boy 2009 (1080p Bluray x265 HEVC 10bit AAC 5.1 Tigole)
  • Astro Boy 2009 (1080p x265 10bit Tigole).mkv (2.3 GB)
  • Featurettes
    • Astro vs. The Junkyard Pirates.mkv (33.7 MB)
    • Building Metro City.mkv (86.5 MB)
    • Creating a Global Icon.mkv (61.2 MB)
    • Designing a Hero.mkv (121.8 MB)
    • Getting the Astro Boy Look.mkv (32.1 MB)
    • Inside the Recording Booth.mkv (118.6 MB)
    • The RRF in New Recruit.mkv (11.5 MB)

Comments

Code:

  • udp://tracker.torrent.eu.org:451/announce
  • udp://tracker.opentrackr.org:1337/announce
  • udp://tracker.coppersurfer.tk:6969/announce